Читаем Добротолюбие. Лекции К.В. Корепанова (Православный телеканал "Союз")

Читаем Добротолюбие. Лекции К.В. Корепанова (Православный телеканал "Союз")

Скачать
Книга доступна в форматах: pdf , fb2 , epub
Категория: Христианство
Читаем Добротолюбие. Лекции К.В. Корепанова

Дата/Год выпуска: 2014

Страна: Россия

Жанр: Лекции

Продолжительность: 42х30минут

Перевод: Не требуется

Режиссер: Православный телеканал "Союз"

Телеканал: Православный телеканал "Союз"

Описание: Путешествие по страницам самой великой книги о духовной жизни - Добротолюбию.

Доп. информация: Автор и ведущий - Константин Корепанов, преподаватель Высших миссионерских курсов в г. Екатеринбурге.

Глубокие богословские познания, широчайший кругозор и несомненный талант рассказчика и проповедника позволяют автору увлечь практически любого слушателя, хоть немного интересующегося религиозными вопросами, даже независимо от его вероисповедания.

По мере появления новых выпусков торрент будет обновляться!

Торрент обновлен! Добавлен файл 042.Антоний Великий. Что делать, чтобы спастись.

Сэмпл: http://multi-up.com/979833

качество: SATRip

формат: AVI

Видео: 720x480 (1.50:1), 25 fps, XviD build 46 ~586 kbps avg, 0.14 bit/pixel

Аудио: 44.100 kHz, MPEG Layer 3, 2 ch, ~128.00 kbps avgСписок выпусков/серий001.Духовная традиция Апостольского века;

002.Два пути и труды мужей апостольских;

003.Появление монашества. Антоний Великий;

004.Формы организации монашеской жизни;

005.Аскетическая жизнь Египетской пустыни;

006.Аскетическая жизнь в Малой Азии;

007.Аскетическая жизнь в Сирии. Ефрем Сирин;

008.Роль монашества в Древней Церкви;

009.История сборника 'Добротолюбие';

010.Жизнь прп. Паисия Величковского;

011.Труды прп. Паисия Величковского;

012.Житие прп. Антония Великого;

013.Наставления прп. Антония Великого. Часть 1;

014.Наставления прп. Антония Великого. Часть 2;

015.Антоний Великий. Попечение о душе;

016.Антоний Великий. Испытывание себя;

017.Антоний Великий. Стяжание Святаго Духа;

018.Антоний Великий. Тело человеческое;

019.Антоний Великий. Экономия слов об утруждении тела;

020.Антоний Великий. Тело человеческое;

021.Антоний Великий. Домостроительство спасения;

022.Антоний Великий. Призывание к молитве. Часть 1;

023.Антоний Великий. Призывание к молитве. Часть 2;

024.Антоний Великий. О сокрушении. Часть 1;

025.Антоний Великий. О сокрушении. Часть 2;

026.Антоний Великий. О бесовских искушениях;

027.Антоний Великий. Об «умном человеке». Часть 1;

028.Антоний Великий. Об «умном человеке». Часть 2;

029.Антоний Великий. О хранении языка;

030.Антоний Великий. Об «умном человеке». Часть 3;

031.Антоний Великий. Об истинном образовании. Часть 1;

032.Антоний Великий. Об истинном образовании. Часть 2;

033.Антоний Великий. Исполнение воли Божией;

034.Антоний Великий. Подлинная человечность;

035.Антоний Великий. Окаменевшие умом;

036.Антоний Великий. Не суди;

037.Антоний Великий. Исполнение воли Божией;

038.Антоний Великий. Грех и падение;

039.Антоний Великий. Страсти и свобода человека;

040.Антоний Великий. Слово о Боге и благодарении;

041.Антоний Великий. Принцип отношения к немощам жизни;

042.Антоний Великий. Что делать, чтобы спастись;MediaInfoGeneral

Complete name: H:\Богословие\Современность (XX-XXIвв.)\Видео\Профессор К.В.Корепанов\Читаем Добротолюбие\001.Духовная традиция Апостольского века.avi

Format: AVI

Format/Info: Audio Video Interleave

File size: 148 MiB

Duration: 28mn 35s

Overall bit rate: 724 Kbps

Writing application: Lavf55.19.104

Writing library: VirtualDub build 32839/release

Video

ID: 0

Format: MPEG-4 Visual

Format profile: Simple@L1

Format settings, BVOP: No

Format settings, QPel: No

Format settings, GMC: No warppoints

Format settings, Matrix: Default (H.263)

Codec ID: XVID

Codec ID/Hint: XviD

Duration: 28mn 35s

Bit rate: 586 Kbps

Width: 720 pixels

Height: 480 pixels

Display aspect ratio: 4:3

Frame rate: 25.000 fps

Standard: NTSC

Color space: YUV

Chroma subsampling: 4:2:0

Bit depth: 8 bits

Scan type: Progressive

Compression mode: Lossy

Bits/(Pixel*Frame): 0.068

Stream size: 120 MiB (81%)

Writing library: Lavc55.39.100

Audio

ID: 1

Format: MPEG Audio

Format version: Version 1

Format profile: Layer 3

Mode: Joint stereo

Mode extension: MS Stereo

Codec ID: 55

Codec ID/Hint: MP3

Duration: 28mn 35s

Bit rate mode: Constant

Bit rate: 128 Kbps

Channel count: 2 channels

Sampling rate: 44.1 KHz

Compression mode: Lossy

Stream size: 26.2 MiB (18%)

Alignment: Split accross interleaves

Interleave, duration: 40 ms (1.00 video frame)

Interleave, preload duration: 500 ms